Начать новую тему Ответить на тему
Статистика раздачи
Размер: 1.36 ГБ | Добавлен: 16 июн 2014, 08:55 | Скачали: 741
Сидеров: 47  [0 байт/сек]    Личеров: 1  [0 байт/сек]
Пред. тема | След. тема 

Автор
Сообщение

СообщениеДобавлено: 16 июн 2014, 08:55 

Ответить с цитатой 

Цвет нации


Оригинальное название: Цвет нацииГод выхода: 2013
Жанр: Документальный, история, фотография



Режиссер: Сергей Нурмамед
Ведущий: Леонид Парфёнов



О фильме:
Фильм расскажет о судьбе и профессиональном подвиге Сергея Прокудина-Горского, даст панораму дореволюционной империи и портреты ее современников. По следам Прокудина-Горского съемочная группа Леонида Парфёнова побывает в 12 регионах. Он — не просто один из родоначальников мировой цветной фотографии, автор первых в Российской империи цветных открыток и издатель журнала «Фотограф-любитель». Еще в начале ХХ века Сергей Михайлович Прокудин-Горский первым осознал исключительную миссию цветной фотосъемки: только фотография «в натуральных цветах» в полной мере сохранит облик того, что может быть утрачено в любой момент. Профессор поставил перед собой фантастическую цель: объездить и запечатлеть на фотокамеру всю Российскую империю, чтобы оставить потомкам полную «коллекцию достопримечательностей». В фильме приняли участие внуки С.М. Прокудина-Горского, проживающие во Франции, а также эксперты Библиотеки Конгресса США.





Страна: Россия, студия «Намедни»
Продолжительность: 01:17:11
Язык: Русский



Качество: HDTVRip
Видео: XviD, 2326 Кбит/с, 704x400, 25 кадр/с
Звук: MP3, 2 ch, 192 Кбит/с


Общее
Полное имя : E:Leonid.Parfyonov.Cvet.nazii.2013.XviD.HDTVRip.avi
Формат : AVI
Формат/Информация : Audio Video Interleave
Размер файла : 1,36 Гбайт
Продолжительность : 1 ч. 17 м.
Общий поток : 2528 Кбит/сек
Программа кодирования : VirtualDubMod 1.5.10.3 | http://www.virtualdub-fr.org || (build 2550/release)
Библиотека кодирования : VirtualDubMod build 2550/release

Видео
Идентификатор : 0
Формат : MPEG-4 Visual
Профиль формата : Advanced Simple@L5
Параметр BVOP формата : 2
Параметр QPel формата : Нет
Параметр GMC формата : Без точки перехода
Параметр матрицы формата : Выборочная
Идентификатор кодека : XVID
Идентификатор кодека/Подсказка : XviD
Продолжительность : 1 ч. 17 м.
Битрейт : 2326 Кбит/сек
Ширина : 704 пикселя
Высота : 400 пикселей
Соотношение сторон : 16:9
Частота кадров : 25,000 кадров/сек
Цветовое пространство : YUV
Субдискретизация насыщенности : 4:2:0
Битовая глубина : 8 бит
Тип развёртки : Прогрессивная
Метод сжатия : С потерями
Бит/(Пиксели*Кадры) : 0.330
Размер потока : 1,25 Гбайт (92%)
Библиотека кодирования : XviD 73

Аудио
Идентификатор : 1
Формат : MPEG Audio
Версия формата : Version 1
Профиль формата : Layer 3
Идентификатор кодека : 55
Идентификатор кодека/Подсказка : MP3
Продолжительность : 1 ч. 17 м.
Вид битрейта : Постоянный
Битрейт : 192 Кбит/сек
Каналы : 2 канала
Частота : 48,0 КГц
Метод сжатия : С потерями
Размер потока : 106 Мбайт (8%)
Выравнивание : Соединение по промежуткам
Продолжительность промежутка : 40 мс. (1,00 видеокадр)
Время предзагрузки промежутка : 504 мс.
Библиотека кодирования : LAME3.99r
Настройки программы : -m s -V 4 -q 0 -lowpass 18.6 -b 192
Правила, инструкции, FAQ!!!
Торрент  Добавлен [16 июн 2014, 08:55] Скачать торрент Магнет ссылка
Скачать торрент
[ Размер 14.18 КБ / Просмотров 174 ]

Статус
Проверен 
 
Размер  1.36 ГБ
Приватный: Нет (DHT включён)
.torrent скачан  741
Как залить торрент? | Как скачать Torrent? | Ошибка в торренте? Качайте магнет  


     Отправить личное сообщение
   
Страница 1 из 1
Показать сообщения за:  Поле сортировки  
Начать новую тему Ответить на тему


Сейчас этот форум просматривают: нет зарегистрированных пользователей и гости: 0


Вы не можете начинать темы
Вы не можете отвечать на сообщения
Вы не можете редактировать свои сообщения
Вы не можете удалять свои сообщения
Вы не можете добавлять вложения

Перейти:  
Ресурс не предоставляет электронные версии произведений, а занимается лишь коллекционированием и каталогизацией ссылок, присылаемых и публикуемых на форуме нашими читателями. Если вы являетесь правообладателем какого-либо представленного материала и не желаете чтобы ссылка на него находилась в нашем каталоге, свяжитесь с нами и мы незамедлительно удалим её. Файлы для обмена на трекере предоставлены пользователями сайта, и администрация не несёт ответственности за их содержание. Просьба не заливать файлы, защищенные авторскими правами, а также файлы нелегального содержания!
cron