Начать новую тему Ответить на тему
Статистика раздачи
Размер: 216.33 МБ | Добавлен: 08 авг 2019, 00:11 | Скачали: 0
Сидеров: 0  [0 байт/сек]    Личеров: 0  [0 байт/сек]
Пред. тема | След. тема 

Автор
Сообщение

СообщениеДобавлено: 08 авг 2019, 00:11 

Ответить с цитатой 

Fire + Ice - Hollow Ways
Страна: England
Жанр: Dark Folk/Apocalyptic Folk
Год выпуска: 1994
Формат: APE (image + .cue)
Битрейт аудио: lossless
Продолжительность: 39:48
Трэклист:
1) Lord Of Secrets (3:58)
2)
Militia Templi (7:21)
3)
Seeker (2:24)
4)
The Old Grey Widowmaker (4:21)
5)
Huldra's Maze (4:15)
6)
The Rising Of The Moon (3:48)
7)
Holy Vehm (3:22)
8)
Erhshebeth (6:55)
9)
Fetter (0:49)
10)
Svartaltar (2:35)
Доп. информация: Fire + Ice is:
Ian Read - vocals
With
Mouse - bass, vocals on tracks 2 and 6, recorderon track 1.
Simon Norris - keyboards on tracks 4, 7 and 10, melodica, vocals on track 3, wood flute on track 5.
Jolie Woods - violin, keyboards on tracks 8 and 10, recorder on track 8, vocals on tracks 4 and 5.
And featuring Freya Aswynn - vocals on "Seeker"
and guest guitarist, Michael Cashmore.
Dedicated to Rudyard Kipling: weaver of words and brother.
Thanks and Dark Blessings to Phil Hine, David Knight, Ingrid Fischer, Nigel Pennick, Matthew, Bob Williams, Nicholas Raven, David Tibet and Douglas P.
Engineered by Peter Chapman at La Rocka Studios, London.
Produced by Simon Norris and Ian Read.
(c) Fire + Ice: BM SORCERY, LONDON, WCIN 3XX.
An ASAFOETIDA PRODUCTION, P.O. BOX 619, Huntington Beach, CA 92648, USA.
Exact Audio Copy V0.99 prebeta 3 from 28. July 2007
Отчёт EAC об извлечении, выполненном 16. декабря 2007, 17:58
Fire And Ice / Hollow Ways
Дисковод: HL-DT-STDVDRAM GSA-T20N Adapter: 1 ID: 0
Режим чтения : Достоверность
Использование точного потока : Да
Отключение кэша аудио : Да
Использование указателей C2 : Нет
Коррекция смещения при чтении : 0
Способность читать области Lead-in и Lead-out : Нет
Заполнение пропущенных сэмплов тишиной : Да
Удаление блоков с тишиной в начале и конце : Нет
При вычислениях CRC использовались нулевые сэмплы : Да
Интерфейс : Встроенный Win32-интерфейс для Win NT/2000
Выходной формат : Внутренние WAV-операции
Формат сэмплов : 44.100 Гц; 16 бит; стерео
TOC извлечённого CD
Трек | Старт | Длительность | Начальный сектор | Конечный сектор
---------------------------------------------------------------------
1 | 0:00.01 | 3:58.04 | 1 | 17854
2 | 3:58.05 | 7:21.15 | 17855 | 50944
3 | 11:19.20 | 2:23.56 | 50945 | 61725
4 | 13:43.01 | 4:21.35 | 61726 | 81335
5 | 18:04.36 | 4:15.02 | 81336 | 100462
6 | 22:19.38 | 3:48.20 | 100463 | 117582
7 | 26:07.58 | 3:22.05 | 117583 | 132737
8 | 29:29.63 | 6:54.44 | 132738 | 163831
9 | 36:24.32 | 0:48.43 | 163832 | 167474
10 | 37:13.00 | 2:35.19 | 167475 | 179118
Характеристики диапазона извлечения и сообщения об ошибках
Выбранный диапазон
Имя файла C:\Downloads\Fire And Ice - Hollow Ways.wav
Пиковый уровень 94.1 %
Качество диапазона 100.0 %
CRC копии F4A29FB6
Копирование... OK
Ошибок не произошло
Конец отчёта
Эта работа Fire + Ice, без сомнения, является одной из жемчужин, классикой направления dark folk. Наполненная поэзией и мелодикой, уходящими корнями в старинную западно-европейскую традицию, она займет достойное место в коллекции ценителя dark folk и творчества этой группы.
Правила, инструкции, FAQ!!!
Торрент  Добавлен [08 авг 2019, 00:11] Скачать торрент Магнет ссылка
Скачать торрент
[ Размер 34.54 КБ / Просмотров 7 ]

Статус
Проверен 
 
Размер  216.33 МБ
Приватный: Нет (DHT включён)
.torrent скачан  0
Как залить торрент? | Как скачать Torrent? | Ошибка в торренте? Качайте магнет  


     Отправить личное сообщение
   
Страница 1 из 1
Показать сообщения за:  Поле сортировки  
Начать новую тему Ответить на тему


Сейчас этот форум просматривают: нет зарегистрированных пользователей и гости: 0


Вы не можете начинать темы
Вы не можете отвечать на сообщения
Вы не можете редактировать свои сообщения
Вы не можете удалять свои сообщения
Вы не можете добавлять вложения

Перейти:  
Ресурс не предоставляет электронные версии произведений, а занимается лишь коллекционированием и каталогизацией ссылок, присылаемых и публикуемых на форуме нашими читателями. Если вы являетесь правообладателем какого-либо представленного материала и не желаете чтобы ссылка на него находилась в нашем каталоге, свяжитесь с нами и мы незамедлительно удалим её. Файлы для обмена на трекере предоставлены пользователями сайта, и администрация не несёт ответственности за их содержание. Просьба не заливать файлы, защищенные авторскими правами, а также файлы нелегального содержания!
cron