Начать новую тему Ответить на тему
Статистика раздачи
Размер: 125.34 МБ | Добавлен: 25 сен 2019, 21:07 | Скачали: 0
Сидеров: 0  [0 байт/сек]    Личеров: 0  [0 байт/сек]
Пред. тема | След. тема 

Автор
Сообщение

СообщениеДобавлено: 25 сен 2019, 21:07 

Ответить с цитатой 

Chorale / Fantasia
Жанр: Euro House, Hard House
Носитель: CDM
Страна-производитель диска (релиза): Finland
Год издания: 2007
Издатель (лейбл): Edel
Номер по каталогу: 0179355ERE
Аудиокодек: FLAC (*.flac)
Тип рипа: image+.cue
Продолжительность: 00:15:54
Источник: собственный рип
Наличие сканов в содержимом раздачи: да
Треклист:
01 Fantasia (Radio Edit) 03:30
02 Fantasia (Club Mix) 05:15
03 Fantasia (Dacia Remix) 03:56
04 Fantasia (Treblefisher Remix) 03:03
Код:
Exact Audio Copy V1.3 from 2. September 2016
Отчёт EAC об извлечении, выполненном 24. сентября 2019, 22:26
Chorale / Fantasia
Дисковод: ASUS    DRW-1814BLT   Adapter: 0  ID: 0
Режим чтения                 : Достоверность
Использование точного потока : Да
Отключение кэша аудио        : Да
Использование указателей C2  : Нет
Коррекция смещения при чтении                     : 6
Способность читать области Lead-in и Lead-out     : Нет
Заполнение пропущенных сэмплов тишиной            : Да
Удаление блоков с тишиной в начале и конце        : Нет
При вычислениях CRC использовались нулевые сэмплы : Да
Интерфейс                                         : Установленный внешний ASPI-интерфейс
Выходной формат          : Пользовательский кодировщик
Выбранный битрейт        : 128 kBit/s
Качество                 : Высокий
Добавление ID3-тега      : Нет
Утилита сжатия           : C:\Program Files (x86)\Exact Audio Copy\FLAC\FLAC.EXE
Дополнительные параметры : -V -8 -T "Date=%year%" -T "Genre=%genre%" %source%
TOC извлечённого CD
     Трек |   Старт  | Длительность | Начальный сектор | Конечный сектор
    ---------------------------------------------------------------------
       1  |  0:00.00 |    3:32.47   |           0      |      15946
       2  |  3:32.47 |    5:17.00   |       15947      |      39721
       3  |  8:49.47 |    3:59.09   |       39722      |      57655
       4  | 12:48.56 |    3:05.00   |       57656      |      71530
Характеристики диапазона извлечения и сообщения об ошибках
Выбранный диапазон
     Имя файла E:\Торрент\Мои Раздачи\CDM\Chorale - Fantasia (CDM-2007)\Chorale - Fantasia.wav
     Пиковый уровень 97.7 %
     Скорость извлечения 3.4 X
     Качество диапазона 100.0 %
     CRC теста CB4B7535
     CRC копии CB4B7535
     Копирование... OK
Ошибок не произошло
AccurateRip: сводка
Трек  1  : извлечено точно (доверие 3)  [2D63D7D5]  (AR v1)
Трек  2  : извлечено точно (доверие 3)  [61E3EAEA]  (AR v1)
Трек  3  : извлечено точно (доверие 3)  [A54D9DA7]  (AR v1)
Трек  4  : извлечено точно (доверие 3)  [A3E8265C]  (AR v1)
Все треки извлечены точно
Конец отчёта
==== Контрольная сумма отчёта 6F285BD95B59C4DF3F37689F925B65821D1793AAA656D4EC523C1D34509A69B9 ====
Правила, инструкции, FAQ!!!
Торрент  Добавлен [25 сен 2019, 21:07] Скачать торрент Магнет ссылка
Скачать торрент
[ Размер 20.26 КБ / Просмотров 6 ]

Статус
Проверен 
 
Размер  125.34 МБ
Приватный: Нет (DHT включён)
.torrent скачан  0
Как залить торрент? | Как скачать Torrent? | Ошибка в торренте? Качайте магнет  


     Отправить личное сообщение
   
Страница 1 из 1
Показать сообщения за:  Поле сортировки  
Начать новую тему Ответить на тему


Сейчас этот форум просматривают: нет зарегистрированных пользователей и гости: 0


Вы не можете начинать темы
Вы не можете отвечать на сообщения
Вы не можете редактировать свои сообщения
Вы не можете удалять свои сообщения
Вы не можете добавлять вложения

Перейти:  
Ресурс не предоставляет электронные версии произведений, а занимается лишь коллекционированием и каталогизацией ссылок, присылаемых и публикуемых на форуме нашими читателями. Если вы являетесь правообладателем какого-либо представленного материала и не желаете чтобы ссылка на него находилась в нашем каталоге, свяжитесь с нами и мы незамедлительно удалим её. Файлы для обмена на трекере предоставлены пользователями сайта, и администрация не несёт ответственности за их содержание. Просьба не заливать файлы, защищенные авторскими правами, а также файлы нелегального содержания!
cron