Начать новую тему Ответить на тему
Статистика раздачи
Размер: 2.53 ГБ | Добавлен: 02 авг 2019, 21:12 | Скачали: 0
Сидеров: 4  [0 байт/сек]    Личеров: 2  [0 байт/сек]
Пред. тема | След. тема 

Автор
Сообщение

СообщениеДобавлено: 02 авг 2019, 21:12 

Ответить с цитатой 

Strange Advance - 3 Albums 2 Compilation (1982-1995)
Жанр: New Wave, Pop Rock, Synth-pop
Носитель: 4CD 1LP
Год издания: 1982-1995
Страна исполнителя (группы): Canada
Аудиокодек: FLAC (*.flac)
Тип рипа: image+.cue, tracks+.cue
Битрейт аудио: lossless
Продолжительность: 05:02:08
Источник: собственная покупка только (The Distance Between)
остольное взято с http://waspeer.info
Наличие сканов в содержимом раздачи: не везде
Albums
http://fastpic.ru/Strange Advance - Worlds Away (Reissue-1982) 2018
Label:Sound Philosophy ‎– SPH 0418
Format:CD, Album, Limited Edition, Reissue, Remastered, Unofficial Release
Country:Russia
Released:2018
Style:New Wave, Pop Rock
Tracklist:
01. She Controls Me 2:57
02. Love Games 3:49
03. One Chance In A Million 4:10
04. Sister Radio 5:17
05. Automatic Sighs 4:39
06. Worlds Away 6:57
07. Kiss In The Dark 3:54
08. Hold On To The Nite 4:32
09. Watermusic 0:55
10. Prisoner 4:13
11. Reprise "Worlds Away" 1:33
12. Lost In Your Eyes 4:34
13. Love Games (Dance Mix) 4:48
Код:
Exact Audio Copy V1.3 from 2. September 2016
EAC extraction logfile from 11. November 2018, 16:56
Strange Advance / Worlds Away
Used drive  : PLEXTOR CD-ROM PX-54TA   Adapter: 1  ID: 1
Read mode               : Secure
Utilize accurate stream : Yes
Defeat audio cache      : Yes
Make use of C2 pointers : No
Read offset correction                      : 12
Overread into Lead-In and Lead-Out          : No
Fill up missing offset samples with silence : Yes
Delete leading and trailing silent blocks   : No
Null samples used in CRC calculations       : Yes
Used interface                              : Native Win32 interface for Win NT & 2000
Gap handling                                : Appended to previous track
Used output format              : User Defined Encoder
Selected bitrate                : 1024 kBit/s
Quality                         : High
Add ID3 tag                     : No
Command line compressor         : C:\Program Files (x86)\Exact Audio Copy\Flac\flac-1.3.2-win\flac-1.3.2-win\win64\flac.exe
Additional command line options : -V -6 -T "COMMENT=ripped by Krevetka1972 special for new-team org" -T "ARTIST=%artist%" -T "TITLE=%title%" -T "ALBUM=%albumtitle%" -T "DATE=%year%" -T "TRACKNUMBER=%tracknr%" -T "GENRE=%genre%" -T "ALBUMARTIST=%albuminterpret%" %source% -o %dest%
TOC of the extracted CD
     Track |   Start  |  Length  | Start sector | End sector
    ---------------------------------------------------------
        1  |  0:00.00 |  2:59.22 |         0    |    13446
        2  |  2:59.22 |  3:51.70 |     13447    |    30841
        3  |  6:51.17 |  4:12.55 |     30842    |    49796
        4  | 11:03.72 |  5:20.00 |     49797    |    73796
        5  | 16:23.72 |  4:41.21 |     73797    |    94892
        6  | 21:05.18 |  6:59.73 |     94893    |   126390
        7  | 28:05.16 |  3:56.11 |    126391    |   144101
        8  | 32:01.27 |  4:34.53 |    144102    |   164704
        9  | 36:36.05 |  0:55.34 |    164705    |   168863
       10  | 37:31.39 |  4:15.24 |    168864    |   188012
       11  | 41:46.63 |  1:35.43 |    188013    |   195180
       12  | 43:22.31 |  4:36.72 |    195181    |   215952
       13  | 47:59.28 |  4:48.21 |    215953    |   237573
Track  1
     Filename E:\Strange Advance - 2018 - Worlds Away (Sound Philosophy # SPH 0418)\01. She Controls Me.wav
     Pre-gap length  0:00:02.00
     Peak level 75.3 %
     Extraction speed 3.3 X
     Track quality 99.9 %
     Test CRC 73438143
     Copy CRC 73438143
     Track not present in AccurateRip database
     Copy OK
Track  2
     Filename E:\Strange Advance - 2018 - Worlds Away (Sound Philosophy # SPH 0418)\02. Love Games.wav
     Pre-gap length  0:00:02.00
     Peak level 79.9 %
     Extraction speed 4.2 X
     Track quality 100.0 %
     Test CRC 1F08D021
     Copy CRC 1F08D021
     Track not present in AccurateRip database
     Copy OK
Track  3
     Filename E:\Strange Advance - 2018 - Worlds Away (Sound Philosophy # SPH 0418)\03. One Chance In A Million.wav
     Pre-gap length  0:00:02.00
     Peak level 91.5 %
     Extraction speed 4.6 X
     Track quality 100.0 %
     Test CRC 8F807FC5
     Copy CRC 8F807FC5
     Track not present in AccurateRip database
     Copy OK
Track  4
     Filename E:\Strange Advance - 2018 - Worlds Away (Sound Philosophy # SPH 0418)\04. Sister Radio.wav
     Pre-gap length  0:00:02.00
     Peak level 82.9 %
     Extraction speed 4.7 X
     Track quality 99.9 %
     Test CRC 8B329FB7
     Copy CRC 8B329FB7
     Track not present in AccurateRip database
     Copy OK
Track  5
     Filename E:\Strange Advance - 2018 - Worlds Away (Sound Philosophy # SPH 0418)\05. Automatic Sighs.wav
     Pre-gap length  0:00:02.00
     Peak level 73.5 %
     Extraction speed 5.4 X
     Track quality 100.0 %
     Test CRC 3B716B9E
     Copy CRC 3B716B9E
     Track not present in AccurateRip database
     Copy OK
Track  6
     Filename E:\Strange Advance - 2018 - Worlds Away (Sound Philosophy # SPH 0418)\06. Worlds Away.wav
     Pre-gap length  0:00:02.00
     Peak level 92.6 %
     Extraction speed 5.6 X
     Track quality 99.9 %
     Test CRC 8248DF40
     Copy CRC 8248DF40
     Track not present in AccurateRip database
     Copy OK
Track  7
     Filename E:\Strange Advance - 2018 - Worlds Away (Sound Philosophy # SPH 0418)\07. Kiss In The Dark.wav
     Pre-gap length  0:00:02.00
     Peak level 99.2 %
     Extraction speed 6.0 X
     Track quality 100.0 %
     Test CRC 4E8C25A4
     Copy CRC 4E8C25A4
     Track not present in AccurateRip database
     Copy OK
Track  8
     Filename E:\Strange Advance - 2018 - Worlds Away (Sound Philosophy # SPH 0418)\08. Hold On To The Nite.wav
     Pre-gap length  0:00:02.00
     Peak level 92.1 %
     Extraction speed 6.3 X
     Track quality 100.0 %
     Test CRC 841871C0
     Copy CRC 841871C0
     Track not present in AccurateRip database
     Copy OK
Track  9
     Filename E:\Strange Advance - 2018 - Worlds Away (Sound Philosophy # SPH 0418)\09. Watermusic.wav
     Pre-gap length  0:00:02.00
     Peak level 31.3 %
     Extraction speed 3.1 X
     Track quality 99.8 %
     Test CRC 78B72A2C
     Copy CRC 78B72A2C
     Track not present in AccurateRip database
     Copy OK
Track 10
     Filename E:\Strange Advance - 2018 - Worlds Away (Sound Philosophy # SPH 0418)\10. Prisoner.wav
     Peak level 88.9 %
     Extraction speed 5.8 X
     Track quality 99.9 %
     Test CRC 4F0A6CCF
     Copy CRC 4F0A6CCF
     Track not present in AccurateRip database
     Copy OK
Track 11
     Filename E:\Strange Advance - 2018 - Worlds Away (Sound Philosophy # SPH 0418)\11. Reprise ''Worlds Away''.wav
     Pre-gap length  0:00:02.00
     Peak level 82.1 %
     Extraction speed 4.3 X
     Track quality 99.8 %
     Test CRC 1A9F3148
     Copy CRC 1A9F3148
     Track not present in AccurateRip database
     Copy OK
Track 12
     Filename E:\Strange Advance - 2018 - Worlds Away (Sound Philosophy # SPH 0418)\12. Lost In Your Eyes.wav
     Pre-gap length  0:00:02.00
     Peak level 78.0 %
     Extraction speed 7.0 X
     Track quality 100.0 %
     Test CRC CAF8F174
     Copy CRC CAF8F174
     Track not present in AccurateRip database
     Copy OK
Track 13
     Filename E:\Strange Advance - 2018 - Worlds Away (Sound Philosophy # SPH 0418)\13. Love Games (Dance Mix).wav
     Pre-gap length  0:00:02.00
     Peak level 66.3 %
     Extraction speed 7.2 X
     Track quality 100.0 %
     Test CRC D749DE2E
     Copy CRC D749DE2E
     Track not present in AccurateRip database
     Copy OK
None of the tracks are present in the AccurateRip database
No errors occurred
End of status report
---- AcoustID Plugin V1.2.0
Total fingerprints: 13
---- CUETools DB Plugin V2.1.6
[CTDB TOCID: XjsE2w_S0WPKL5CdbGz5.L_eg4o-] disk not present in database
Submit result: XjsE2w_S0WPKL5CdbGz5.L_eg4o- has been uploaded
==== Log checksum 0EA604E5D2AD8A67F564F4698CD895BBD41CAD5D5DC1DED81AE3F57D8C1540C8 ====
Код:
REM GENRE "New Wave"
REM DATE 2018
REM DISCID BE0C5F0D
REM COMMENT "ExactAudioCopy v1.3"
PERFORMER "Strange Advance"
TITLE "Worlds Away"
FILE "01. She Controls Me.wav" WAVE
  TRACK 01 AUDIO
    TITLE "She Controls Me"
    PERFORMER "Strange Advance"
    INDEX 01 00:00:00
  TRACK 02 AUDIO
    TITLE "Love Games"
    PERFORMER "Strange Advance"
    INDEX 00 02:57:22
FILE "02. Love Games.wav" WAVE
    INDEX 01 00:00:00
  TRACK 03 AUDIO
    TITLE "One Chance In A Million"
    PERFORMER "Strange Advance"
    INDEX 00 03:49:70
FILE "03. One Chance In A Million.wav" WAVE
    INDEX 01 00:00:00
  TRACK 04 AUDIO
    TITLE "Sister Radio"
    PERFORMER "Strange Advance"
    INDEX 00 04:10:55
FILE "04. Sister Radio.wav" WAVE
    INDEX 01 00:00:00
  TRACK 05 AUDIO
    TITLE "Automatic Sighs"
    PERFORMER "Strange Advance"
    INDEX 00 05:18:00
FILE "05. Automatic Sighs.wav" WAVE
    INDEX 01 00:00:00
  TRACK 06 AUDIO
    TITLE "Worlds Away"
    PERFORMER "Strange Advance"
    INDEX 00 04:39:21
FILE "06. Worlds Away.wav" WAVE
    INDEX 01 00:00:00
  TRACK 07 AUDIO
    TITLE "Kiss In The Dark"
    PERFORMER "Strange Advance"
    INDEX 00 06:57:73
FILE "07. Kiss In The Dark.wav" WAVE
    INDEX 01 00:00:00
  TRACK 08 AUDIO
    TITLE "Hold On To The Nite"
    PERFORMER "Strange Advance"
    INDEX 00 03:54:11
FILE "08. Hold On To The Nite.wav" WAVE
    INDEX 01 00:00:00
  TRACK 09 AUDIO
    TITLE "Watermusic"
    PERFORMER "Strange Advance"
    INDEX 00 04:32:53
FILE "09. Watermusic.wav" WAVE
    INDEX 01 00:00:00
FILE "10. Prisoner.wav" WAVE
  TRACK 10 AUDIO
    TITLE "Prisoner"
    PERFORMER "Strange Advance"
    INDEX 01 00:00:00
  TRACK 11 AUDIO
    TITLE "Reprise 'Worlds Away'"
    PERFORMER "Strange Advance"
    INDEX 00 04:13:24
FILE "11. Reprise ''Worlds Away''.wav" WAVE
    INDEX 01 00:00:00
  TRACK 12 AUDIO
    TITLE "Lost In Your Eyes"
    PERFORMER "Strange Advance"
    INDEX 00 01:33:43
FILE "12. Lost In Your Eyes.wav" WAVE
    INDEX 01 00:00:00
  TRACK 13 AUDIO
    TITLE "Love Games (Dance Mix)"
    PERFORMER "Strange Advance"
    INDEX 00 04:34:72
FILE "13. Love Games (Dance Mix).wav" WAVE
    INDEX 01 00:00:00
#777Strange Advance - 2WO 1985 LP

Label:Capitol Records ‎– 1C 064-24 0286 1
Format:Vinyl, LP, Album
Country:Europe
Released:1985
Style:New Wave, Pop Rock, Synth-pop
Tracklist:
A1. I'll Be The One To Cry 3:56
A2. The Second That I Saw You 3:23
A3. We Run 3:58
A4. Prelude 2:03
A5. Home Of The Brave 6:33
B1. The Sounds Of Life 3:56
B2. Blue Fire 4:12
B3. Just Like You 5:45
B4. Running Away 3:15
B5. Nor Crystal Tears 5:02
Код:
REM GENRE Pop
REM DATE 1985
REM COMMENT Vinyl rip by JohnParr
PERFORMER "Strange Advance"
TITLE "2WO"
FILE "Side 1.flac" WAVE
  TRACK 01 AUDIO
    TITLE "I'll Be the One to Cry"
    INDEX 01 00:00:00
  TRACK 02 AUDIO
    TITLE "The Second That I Saw You"
    INDEX 01 03:56:47
  TRACK 03 AUDIO
    TITLE "We Run"
    INDEX 01 07:17:20
  TRACK 04 AUDIO
    TITLE "Prelude"
    INDEX 01 11:16:50
  TRACK 05 AUDIO
    TITLE "Home of the Brave"
    INDEX 01 13:18:62
FILE "Side 2.flac" WAVE
  TRACK 06 AUDIO
    TITLE "The Sounds of Life"
    INDEX 01 00:00:00
  TRACK 07 AUDIO
    TITLE "Blue Fire"
    INDEX 01 04:10:00
  TRACK 08 AUDIO
    TITLE "Just Like You"
    INDEX 01 08:26:00
  TRACK 09 AUDIO
    TITLE "Running Away"
    INDEX 01 14:08:00
  TRACK 10 AUDIO
    TITLE "Nor Crystal Tears"
    INDEX 01 18:26:00
#777Strange Advance - The Distance Between (Remastered-1988) 2016
Label:Bullseye Records Of Canada ‎– BLR-CD-3102
Format:CD, Album, Reissue, Remastered
Country:Canada
Released:2016
Style:New Wave, Alternative Rock
Tracklist:
01. Till The Stars Fall 4:06
02. Love Becomes Electric 4:20
03. Who Lives Next Door 4:52
04. Love Is Strang 4:22
05. This Island Earth 4:48
06. Hold You 4:29
07. Crying In The Ocean 4:13
08. Wild Blue 4:24
09. Rock And Whirl 4:19
10. Ultimate Angels 2:27
11. Alien Time 7:17
12. Love Becomes Electric [Extended Club Mix] 6:11
13. Flow My Tears [Previously Unreleased] 5:04
Код:
Exact Audio Copy V1.3 from 2. September 2016
Отчёт EAC об извлечении, выполненном 20. июня 2019, 18:10
Strange Advance / The Distance Between
Дисковод: SONY    CD-RW  CRX230ED   Adapter: 1  ID: 1
Режим чтения                 : Достоверность
Использование точного потока : Да
Отключение кэша аудио        : Да
Использование указателей C2  : Нет
Коррекция смещения при чтении                     : 6
Способность читать области Lead-in и Lead-out     : Нет
Заполнение пропущенных сэмплов тишиной            : Да
Удаление блоков с тишиной в начале и конце        : Нет
При вычислениях CRC использовались нулевые сэмплы : Да
Интерфейс                                         : Встроенный Win32-интерфейс для Win NT/2000
Выходной формат : Внутренние WAV-операции
Формат сэмплов  : 44.100 Гц; 16 бит; стерео
TOC извлечённого CD
     Трек |   Старт  | Длительность | Начальный сектор | Конечный сектор
    ---------------------------------------------------------------------
       1  |  0:00.00 |    4:07.40   |           0      |      18564
       2  |  4:07.40 |    4:21.40   |       18565      |      38179
       3  |  8:29.05 |    4:54.22   |       38180      |      60251
       4  | 13:23.27 |    4:23.48   |       60252      |      80024
       5  | 17:47.00 |    4:50.25   |       80025      |     101799
       6  | 22:37.25 |    4:30.49   |      101800      |     122098
       7  | 27:07.74 |    4:14.57   |      122099      |     141205
       8  | 31:22.56 |    4:26.36   |      141206      |     161191
       9  | 35:49.17 |    4:19.22   |      161192      |     180638
      10  | 40:08.39 |    2:27.08   |      180639      |     191671
      11  | 42:35.47 |    7:18.50   |      191672      |     224571
      12  | 49:54.22 |    6:13.01   |      224572      |     252547
      13  | 56:07.23 |    5:04.00   |      252548      |     275347
Характеристики диапазона извлечения и сообщения об ошибках
Выбранный диапазон
     Имя файла C:\Users\Serg22\Documents\Strange Advance - The Distance Between 1988\Strange Advance - The Distance Between.wav
     Пиковый уровень 100.0 %
     Скорость извлечения 2.5 X
     Качество диапазона 100.0 %
     CRC теста E374C998
     CRC копии E374C998
     Копирование... OK
Ошибок не произошло
AccurateRip: сводка
Трек  1  : извлечено точно (доверие 2)  [9375B855]  (AR v2)
Трек  2  : извлечено точно (доверие 3)  [D573B6D4]  (AR v2)
Трек  3  : извлечено точно (доверие 3)  [06E4FB95]  (AR v2)
Трек  4  : извлечено точно (доверие 3)  [BBB0BF41]  (AR v2)
Трек  5  : извлечено точно (доверие 3)  [B59EE857]  (AR v2)
Трек  6  : извлечено точно (доверие 3)  [514C542C]  (AR v2)
Трек  7  : извлечено точно (доверие 3)  [0E4AB4BC]  (AR v2)
Трек  8  : извлечено точно (доверие 3)  [440A48D5]  (AR v2)
Трек  9  : извлечено точно (доверие 3)  [D9A8BB71]  (AR v2)
Трек 10  : извлечено точно (доверие 3)  [C7824C42]  (AR v2)
Трек 11  : извлечено точно (доверие 3)  [25DDE481]  (AR v2)
Трек 12  : извлечено точно (доверие 3)  [46D9F13F]  (AR v2)
Трек 13  : извлечено точно (доверие 3)  [4E551809]  (AR v2)
Все треки извлечены точно
Конец отчёта
==== Контрольная сумма отчёта 146D109175AD6FB732F07998D85C3FF47CB1ACEA9F1D0EA4BDD41B5629AB676E ====
Код:
REM GENRE "New Wave"
REM DATE 1988
REM DISCID C00E570D
REM COMMENT "ExactAudioCopy v1.3"
CATALOG 0805080310229
PERFORMER "Strange Advance"
TITLE "The Distance Between"
FILE "Strange Advance - The Distance Between.flac" WAVE
  TRACK 01 AUDIO
    TITLE "Till the Stars Fall"
    PERFORMER "Strange Advance"
    ISRC CABB80402128
    INDEX 01 00:00:00
  TRACK 02 AUDIO
    TITLE "Love Becomes Electric"
    PERFORMER "Strange Advance"
    INDEX 01 04:07:40
  TRACK 03 AUDIO
    TITLE "Who Lives Next Door"
    PERFORMER "Strange Advance"
    ISRC CABB80402130
    INDEX 01 08:29:05
  TRACK 04 AUDIO
    TITLE "Love is Strange"
    PERFORMER "Strange Advance"
    ISRC CABB80402131
    INDEX 01 13:23:27
  TRACK 05 AUDIO
    TITLE "This Island Earth"
    PERFORMER "Strange Advance"
    ISRC CABB80402132
    INDEX 01 17:47:00
  TRACK 06 AUDIO
    TITLE "Hold You"
    PERFORMER "Strange Advance"
    ISRC CABB80402133
    INDEX 01 22:37:25
  TRACK 07 AUDIO
    TITLE "Crying in the Ocean"
    PERFORMER "Strange Advance"
    ISRC CABB80402134
    INDEX 01 27:07:74
  TRACK 08 AUDIO
    TITLE "Wild Blue"
    PERFORMER "Strange Advance"
    ISRC CABB80402135
    INDEX 01 31:22:56
  TRACK 09 AUDIO
    TITLE "Rock and Whirl"
    PERFORMER "Strange Advance"
    ISRC CABB80402136
    INDEX 01 35:49:17
  TRACK 10 AUDIO
    TITLE "Ultimate Angels"
    PERFORMER "Strange Advance"
    ISRC CABB80402137
    INDEX 01 40:08:39
  TRACK 11 AUDIO
    TITLE "Alien Time"
    PERFORMER "Strange Advance"
    ISRC CABB80402138
    INDEX 01 42:35:47
  TRACK 12 AUDIO
    TITLE "Love Becomes Electric (Extended Club Mix)"
    PERFORMER "Strange Advance"
    ISRC CABB80402139
    INDEX 01 49:54:22
  TRACK 13 AUDIO
    TITLE "Flow My Tears"
    PERFORMER "Strange Advance"
    ISRC CABB80402140
    INDEX 01 56:07:23
Compilation
#777Strange Advance - Over 60 Minutes With 1987

Label:Capitol Records ‎– CDP 7 46887-2
Format:CD, Compilation
Country:Canada
Released:1987
Style:New Wave, Soft Rock, Synth-pop
Tracklist:
01. World's Away 7:01
02. Love Games 3:47
03. Kiss In The Dark 3:54
04. Hold On To The Nite 4:30
05. The Second That I Saw You 3:23
06. She Controls Me 2:56
07. We Run 3:58
08. Running Away 3:15
09. Prelude 2:08
10. Home Of The Brave 6:33
11. Automatic Sighs 4:38
12. Blue Fire 4:12
13. Prisoner 4:14
14. Lost In Your Eyes 4:33
15. We Run (Advanced Mix) 9:20
16. Reprise "Worlds Away" 1:11
Код:
Exact Audio Copy V0.99 prebeta 4 from 23. January 2008
EAC extraction logfile from 27. October 2008, 19:53
Strange Advance / Over 60 Minutes With...
Used drive  : PLEXTOR DVDR   PX-716A   Adapter: 2  ID: 0
Read mode               : Secure
Utilize accurate stream : Yes
Defeat audio cache      : Yes
Make use of C2 pointers : No
Read offset correction                      : 30
Overread into Lead-In and Lead-Out          : No
Fill up missing offset samples with silence : Yes
Delete leading and trailing silent blocks   : No
Null samples used in CRC calculations       : No
Used interface                              : Native Win32 interface for Win NT & 2000
Gap handling                                : Appended to previous track
Used output format              : User Defined Encoder
Selected bitrate                : 1024 kBit/s
Quality                         : High
Add ID3 tag                     : Yes
Command line compressor         : C:\Program Files\Exact Audio Copy\FLAC\FLAC.EXE
Additional command line options : -6 -V -T "ARTIST=%a" -T "TITLE=%t" -T "ALBUM=%g" -T "DATE=%y" -T "TRACKNUMBER=%n" -T "GENRE=%m" -T "COMMENT=%e" %s -o %d
TOC of the extracted CD
     Track |   Start  |  Length  | Start sector | End sector
    ---------------------------------------------------------
        1  |  0:00.32 |  7:07.08 |        32    |    32064
        2  |  7:07.40 |  3:52.12 |     32065    |    49476
        3  | 10:59.52 |  3:58.38 |     49477    |    67364
        4  | 14:58.15 |  4:34.42 |     67365    |    87956
        5  | 19:32.57 |  3:22.15 |     87957    |   103121
        6  | 22:54.72 |  2:58.70 |    103122    |   116541
        7  | 25:53.67 |  3:59.13 |    116542    |   134479
        8  | 29:53.05 |  4:14.72 |    134480    |   153601
        9  | 34:08.02 |  2:02.18 |    153602    |   162769
       10  | 36:10.20 |  6:33.00 |    162770    |   192244
       11  | 42:43.20 |  4:42.72 |    192245    |   213466
       12  | 47:26.17 |  4:13.05 |    213467    |   232446
       13  | 51:39.22 |  4:20.08 |    232447    |   251954
       14  | 55:59.30 |  4:35.02 |    251955    |   272581
       15  | 60:34.32 |  9:15.38 |    272582    |   314244
       16  | 69:49.70 |  1:35.22 |    314245    |   321391
Track  1
     Filename C:\Users\Administrator\My Documents\EAC Rips\01. Strange Advance - World's Away.wav
     Pre-gap length  0:00:02.32
     Peak level 88.2 %
     Track quality 100.0 %
     Test CRC 36532CBF
     Copy CRC 36532CBF
     Cannot be verified as accurate (confidence 3)  [8D6D11F1], AccurateRip returned [A976FD23]
     Copy OK
Track  2
     Filename C:\Users\Administrator\My Documents\EAC Rips\02. Strange Advance - Love Games.wav
     Pre-gap length  0:00:01.23
     Peak level 66.3 %
     Track quality 100.0 %
     Test CRC 12EB2A35
     Copy CRC 12EB2A35
     Cannot be verified as accurate (confidence 3)  [F7B68937], AccurateRip returned [708ABA90]
     Copy OK
Track  3
     Filename C:\Users\Administrator\My Documents\EAC Rips\03. Strange Advance - Kiss in the Dark.wav
     Pre-gap length  0:00:00.57
     Peak level 74.3 %
     Track quality 100.0 %
     Test CRC CD458E77
     Copy CRC CD458E77
     Cannot be verified as accurate (confidence 3)  [8ED22E08], AccurateRip returned [F6805E45]
     Copy OK
Track  4
     Filename C:\Users\Administrator\My Documents\EAC Rips\04. Strange Advance - Hold On to the Nite.wav
     Pre-gap length  0:00:01.33
     Peak level 79.2 %
     Track quality 100.0 %
     Test CRC F14CE15D
     Copy CRC F14CE15D
     Cannot be verified as accurate (confidence 2)  [B541757C], AccurateRip returned [9230317F]
     Copy OK
Track  5
     Filename C:\Users\Administrator\My Documents\EAC Rips\05. Strange Advance - The Second That I Saw You.wav
     Pre-gap length  0:00:01.22
     Peak level 85.1 %
     Track quality 100.0 %
     Test CRC 3065125A
     Copy CRC 3065125A
     Cannot be verified as accurate (confidence 3)  [46ACA20D], AccurateRip returned [65AC77BC]
     Copy OK
Track  6
     Filename C:\Users\Administrator\My Documents\EAC Rips\06. Strange Advance - She Controls Me.wav
     Peak level 78.6 %
     Track quality 100.0 %
     Test CRC B3BA463C
     Copy CRC B3BA463C
     Cannot be verified as accurate (confidence 2)  [B43B83E7], AccurateRip returned [8FBFD13F]
     Copy OK
Track  7
     Filename C:\Users\Administrator\My Documents\EAC Rips\07. Strange Advance - We Run.wav
     Pre-gap length  0:00:00.42
     Peak level 71.6 %
     Track quality 100.0 %
     Test CRC 60A8DE31
     Copy CRC 60A8DE31
     Cannot be verified as accurate (confidence 3)  [CBB1A944], AccurateRip returned [9A3C0D12]
     Copy OK
Track  8
     Filename C:\Users\Administrator\My Documents\EAC Rips\08. Strange Advance - Running Away.wav
     Pre-gap length  0:00:00.60
     Peak level 48.6 %
     Track quality 100.0 %
     Test CRC 83FF20CB
     Copy CRC 83FF20CB
     Cannot be verified as accurate (confidence 3)  [A9C032CB], AccurateRip returned [86846CDF]
     Copy OK
Track  9
     Filename C:\Users\Administrator\My Documents\EAC Rips\09. Strange Advance - Prelude.wav
     Peak level 15.1 %
     Track quality 100.0 %
     Test CRC 8A36F8EB
     Copy CRC 8A36F8EB
     Cannot be verified as accurate (confidence 3)  [1484AA8B], AccurateRip returned [A54D2801]
     Copy OK
Track 10
     Filename C:\Users\Administrator\My Documents\EAC Rips\10. Strange Advance - Home of the Brave.wav
     Pre-gap length  0:00:00.30
     Peak level 70.7 %
     Track quality 100.0 %
     Test CRC AC2A6D38
     Copy CRC AC2A6D38
     Cannot be verified as accurate (confidence 3)  [3FE0C999], AccurateRip returned [37BC8582]
     Copy OK
Track 11
     Filename C:\Users\Administrator\My Documents\EAC Rips\11. Strange Advance - Automatic Sighs.wav
     Peak level 69.0 %
     Track quality 100.0 %
     Test CRC A65C085A
     Copy CRC A65C085A
     Cannot be verified as accurate (confidence 3)  [EAC42D94], AccurateRip returned [37B57C52]
     Copy OK
Track 12
     Filename C:\Users\Administrator\My Documents\EAC Rips\12. Strange Advance - Blue Fire.wav
     Pre-gap length  0:00:00.42
     Peak level 79.7 %
     Track quality 100.0 %
     Test CRC 34E39594
     Copy CRC 34E39594
     Cannot be verified as accurate (confidence 3)  [CA242CBA], AccurateRip returned [DD36CC1D]
     Copy OK
Track 13
     Filename C:\Users\Administrator\My Documents\EAC Rips\13. Strange Advance - Prisoner.wav
     Peak level 76.2 %
     Track quality 100.0 %
     Test CRC 78F144E2
     Copy CRC 78F144E2
     Cannot be verified as accurate (confidence 3)  [13E6C62E], AccurateRip returned [9FDAB8FB]
     Copy OK
Track 14
     Filename C:\Users\Administrator\My Documents\EAC Rips\14. Strange Advance - Lost in Your Eyes.wav
     Pre-gap length  0:00:01.38
     Peak level 67.9 %
     Track quality 100.0 %
     Test CRC EBAF1E24
     Copy CRC EBAF1E24
     Cannot be verified as accurate (confidence 3)  [1D5EC1E1], AccurateRip returned [FA6104B8]
     Copy OK
Track 15
     Filename C:\Users\Administrator\My Documents\EAC Rips\15. Strange Advance - We Run (Advanced Mix).wav
     Peak level 71.7 %
     Track quality 100.0 %
     Test CRC 9D003C64
     Copy CRC 9D003C64
     Cannot be verified as accurate (confidence 3)  [251A9725], AccurateRip returned [9E4C98C8]
     Copy OK
Track 16
     Filename C:\Users\Administrator\My Documents\EAC Rips\16. Strange Advance - Reprise 'World's Away'.wav
     Peak level 42.0 %
     Track quality 99.8 %
     Test CRC 0147384C
     Copy CRC 0147384C
     Cannot be verified as accurate (confidence 3)  [EF865A17], AccurateRip returned [E12103E6]
     Copy OK
No tracks could be verified as accurate
You may have a different pressing from the one(s) in the database
No errors occurred
End of status report
Код:
REM GENRE "New Wave"
REM DATE 1987
REM DISCID D910BD10
REM COMMENT "ExactAudioCopy v0.99pb4"
PERFORMER "Strange Advance"
TITLE "Over 60 Minutes With..."
FILE "01. Strange Advance - World's Away.wav" WAVE
  TRACK 01 AUDIO
    TITLE "World's Away"
    PERFORMER "Strange Advance"
    PREGAP 00:00:32
    INDEX 01 00:00:00
  TRACK 02 AUDIO
    TITLE "Love Games"
    PERFORMER "Strange Advance"
    INDEX 00 07:05:60
FILE "02. Strange Advance - Love Games.wav" WAVE
    INDEX 01 00:00:00
  TRACK 03 AUDIO
    TITLE "Kiss in the Dark"
    PERFORMER "Strange Advance"
    INDEX 00 03:51:30
FILE "03. Strange Advance - Kiss in the Dark.wav" WAVE
    INDEX 01 00:00:00
  TRACK 04 AUDIO
    TITLE "Hold On to the Nite"
    PERFORMER "Strange Advance"
    INDEX 00 03:57:05
FILE "04. Strange Advance - Hold On to the Nite.wav" WAVE
    INDEX 01 00:00:00
  TRACK 05 AUDIO
    TITLE "The Second That I Saw You"
    PERFORMER "Strange Advance"
    INDEX 00 04:33:20
FILE "05. Strange Advance - The Second That I Saw You.wav" WAVE
    INDEX 01 00:00:00
FILE "06. Strange Advance - She Controls Me.wav" WAVE
  TRACK 06 AUDIO
    TITLE "She Controls Me"
    PERFORMER "Strange Advance"
    INDEX 01 00:00:00
  TRACK 07 AUDIO
    TITLE "We Run"
    PERFORMER "Strange Advance"
    INDEX 00 02:58:28
FILE "07. Strange Advance - We Run.wav" WAVE
    INDEX 01 00:00:00
  TRACK 08 AUDIO
    TITLE "Running Away"
    PERFORMER "Strange Advance"
    INDEX 00 03:58:28
FILE "08. Strange Advance - Running Away.wav" WAVE
    INDEX 01 00:00:00
FILE "09. Strange Advance - Prelude.wav" WAVE
  TRACK 09 AUDIO
    TITLE "Prelude"
    PERFORMER "Strange Advance"
    INDEX 01 00:00:00
  TRACK 10 AUDIO
    TITLE "Home of the Brave"
    PERFORMER "Strange Advance"
    INDEX 00 02:01:63
FILE "10. Strange Advance - Home of the Brave.wav" WAVE
    INDEX 01 00:00:00
FILE "11. Strange Advance - Automatic Sighs.wav" WAVE
  TRACK 11 AUDIO
    TITLE "Automatic Sighs"
    PERFORMER "Strange Advance"
    INDEX 01 00:00:00
  TRACK 12 AUDIO
    TITLE "Blue Fire"
    PERFORMER "Strange Advance"
    INDEX 00 04:42:30
FILE "12. Strange Advance - Blue Fire.wav" WAVE
    INDEX 01 00:00:00
FILE "13. Strange Advance - Prisoner.wav" WAVE
  TRACK 13 AUDIO
    TITLE "Prisoner"
    PERFORMER "Strange Advance"
    INDEX 01 00:00:00
  TRACK 14 AUDIO
    TITLE "Lost in Your Eyes"
    PERFORMER "Strange Advance"
    INDEX 00 04:18:45
FILE "14. Strange Advance - Lost in Your Eyes.wav" WAVE
    INDEX 01 00:00:00
FILE "15. Strange Advance - We Run (Advanced Mix).wav" WAVE
  TRACK 15 AUDIO
    TITLE "We Run (Advanced Mix)"
    PERFORMER "Strange Advance"
    INDEX 01 00:00:00
FILE "16. Strange Advance - Reprise 'World's Away'.wav" WAVE
  TRACK 16 AUDIO
    TITLE "Reprise 'World's Away'"
    PERFORMER "Strange Advance"
    INDEX 01 00:00:00
#777Cusco - Apurimac 1988
Label:EMI Music Canada ‎– E2-72438-35344-2-5
Format:CD, Compilation
Country:Canada
Released:1995
Style:New Wave, Space Rock
Tracklist:
01. Worlds Away 7:09
02. She Controls Me - U.S. Single Mix 2:59
03. Lady With A Blade - Demo Version 3:16
04. Sister Radio 5:17
05. We Run 3:59
06. Just Like You - Previously Unreleased Mix 6:36
07. The Second That I Saw You 3:25
08. Running Away - Previously Unreleased Mix 4:40
09. Love Becomes Electric 4:20
10. Till The Stars Fall 4:07
11. Who Lives Next Door 4:57
12. Alien Time 7:25
13. Perfect Day - 1991 Recording 4:15
14. Do What You Want - New 1995 Recording 5:21
15. Worlds Away (S.E.T.I. 1999) - New 1995 Recording 5:32
Код:
Exact Audio Copy V1.1 from 23. June 2015
EAC extraction logfile from 14. January 2016, 9:13
Strange Advance / Worlds Away & Back
Used drive  : Optiarc DVD RW AD-5280S   Adapter: 1  ID: 0
Read mode               : Secure
Utilize accurate stream : Yes
Defeat audio cache      : Yes
Make use of C2 pointers : No
Read offset correction                      : 48
Overread into Lead-In and Lead-Out          : No
Fill up missing offset samples with silence : Yes
Delete leading and trailing silent blocks   : No
Null samples used in CRC calculations       : Yes
Used interface                              : Native Win32 interface for Win NT & 2000
Used output format              : User Defined Encoder
Selected bitrate                : 896 kBit/s
Quality                         : High
Add ID3 tag                     : No
Command line compressor         : C:\Program Files (x86)\Exact Audio Copy\Flac\flac.exe
Additional command line options : -V -8 -T "Date=%year%" -T "Genre=%genre%" %source%
TOC of the extracted CD
     Track |   Start  |  Length  | Start sector | End sector
    ---------------------------------------------------------
        1  |  0:00.00 |  7:09.27 |         0    |    32201
        2  |  7:09.27 |  2:59.13 |     32202    |    45639
        3  | 10:08.40 |  3:16.02 |     45640    |    60341
        4  | 13:24.42 |  5:17.10 |     60342    |    84126
        5  | 18:41.52 |  3:59.55 |     84127    |   102106
        6  | 22:41.32 |  6:36.15 |    102107    |   131821
        7  | 29:17.47 |  3:25.55 |    131822    |   147251
        8  | 32:43.27 |  4:40.43 |    147252    |   168294
        9  | 37:23.70 |  4:20.27 |    168295    |   187821
       10  | 41:44.22 |  4:07.03 |    187822    |   206349
       11  | 45:51.25 |  4:57.17 |    206350    |   228641
       12  | 50:48.42 |  7:25.40 |    228642    |   262056
       13  | 58:14.07 |  4:15.15 |    262057    |   281196
       14  | 62:29.22 |  5:21.60 |    281197    |   305331
       15  | 67:51.07 |  5:32.15 |    305332    |   330246
Range status and errors
Selected range
     Filename F:\МУЗЫКА\Strange Advance - Worlds Away & Back 1995\Strange Advance - Worlds Away & Back.wav
     Peak level 99.7 %
     Extraction speed 4.4 X
     Range quality 99.9 %
     Test CRC 22A6E44F
     Copy CRC 22A6E44F
     Copy OK
No errors occurred
AccurateRip summary
Track  1  cannot be verified as accurate (confidence 4)  [77E63535], AccurateRip returned [5AE179DD]  (AR v2)
Track  2  cannot be verified as accurate (confidence 4)  [C4906921], AccurateRip returned [E69522A0]  (AR v2)
Track  3  cannot be verified as accurate (confidence 4)  [D4B21E15], AccurateRip returned [A2A95B53]  (AR v2)
Track  4  cannot be verified as accurate (confidence 4)  [16FD2E46], AccurateRip returned [12D3EFA9]  (AR v2)
Track  5  cannot be verified as accurate (confidence 4)  [7E6DB046], AccurateRip returned [39A8693B]  (AR v2)
Track  6  cannot be verified as accurate (confidence 4)  [11AA16E2], AccurateRip returned [646DE583]  (AR v2)
Track  7  cannot be verified as accurate (confidence 4)  [09A103C1], AccurateRip returned [C73A9141]  (AR v2)
Track  8  cannot be verified as accurate (confidence 4)  [C32D566A], AccurateRip returned [14C97FCF]  (AR v2)
Track  9  cannot be verified as accurate (confidence 5)  [2D247AA8], AccurateRip returned [C4BE9333]  (AR v2)
Track 10  cannot be verified as accurate (confidence 4)  [61C28093], AccurateRip returned [31BD9FC9]  (AR v2)
Track 11  cannot be verified as accurate (confidence 4)  [A705ABF0], AccurateRip returned [6DAA50F4]  (AR v2)
Track 12  cannot be verified as accurate (confidence 3)  [B6A01473], AccurateRip returned [B8D9E621]  (AR v2)
Track 13  cannot be verified as accurate (confidence 3)  [802B5298], AccurateRip returned [06521AD5]  (AR v2)
Track 14  cannot be verified as accurate (confidence 3)  [553E29C8], AccurateRip returned [7F2F0144]  (AR v2)
Track 15  cannot be verified as accurate (confidence 3)  [E6B8C255], AccurateRip returned [4328FEA7]  (AR v2)
No tracks could be verified as accurate
You may have a different pressing from the one(s) in the database
End of status report
---- CUETools DB Plugin V2.1.6
[CTDB TOCID: fy.LBrYOb62Eyrfkttl_BQNSV_Q-] found
Submit result: fy.LBrYOb62Eyrfkttl_BQNSV_Q- has been confirmed
Track | CTDB Status
  1   | (2/2) Accurately ripped
  2   | (2/2) Accurately ripped
  3   | (2/2) Accurately ripped
  4   | (2/2) Accurately ripped
  5   | (2/2) Accurately ripped
  6   | (2/2) Accurately ripped
  7   | (2/2) Accurately ripped
  8   | (2/2) Accurately ripped
  9   | (2/2) Accurately ripped
 10   | (2/2) Accurately ripped
 11   | (2/2) Accurately ripped
 12   | (2/2) Accurately ripped
 13   | (2/2) Accurately ripped
 14   | (2/2) Accurately ripped
 15   | (2/2) Accurately ripped
==== Log checksum B2BD19F92D10973961D8FEAFDBAF4A625D805BA0187177CCEF8EF0928EE82FD9 ====
Код:
REM GENRE Pop
REM DATE 1995
REM DISCID C511330F
REM COMMENT "ExactAudioCopy v1.1"
PERFORMER "Strange Advance"
TITLE "Worlds Away & Back"
FILE "Strange Advance - Worlds Away & Back.flac" WAVE
  TRACK 01 AUDIO
    TITLE "Worlds Away"
    PERFORMER "Strange Advance"
    INDEX 01 00:00:00
  TRACK 02 AUDIO
    TITLE "She Controls Me (U.S. Single Mix)"
    PERFORMER "Strange Advance"
    INDEX 00 07:07:67
    INDEX 01 07:09:27
  TRACK 03 AUDIO
    TITLE "Lady with a Blade (Demo Version)"
    PERFORMER "Strange Advance"
    INDEX 00 10:07:12
    INDEX 01 10:08:40
  TRACK 04 AUDIO
    TITLE "Sister Radio"
    PERFORMER "Strange Advance"
    INDEX 00 13:22:60
    INDEX 01 13:24:42
  TRACK 05 AUDIO
    TITLE "We Run"
    PERFORMER "Strange Advance"
    INDEX 00 18:39:52
    INDEX 01 18:41:52
  TRACK 06 AUDIO
    TITLE "Just Like You (Previously Unreleased Mix)"
    PERFORMER "Strange Advance"
    INDEX 00 22:39:32
    INDEX 01 22:41:32
  TRACK 07 AUDIO
    TITLE "The Second That I Saw You"
    PERFORMER "Strange Advance"
    INDEX 00 29:16:07
    INDEX 01 29:17:47
  TRACK 08 AUDIO
    TITLE "Running Away (Previously Unreleased Mix)"
    PERFORMER "Strange Advance"
    INDEX 00 32:42:00
    INDEX 01 32:43:27
  TRACK 09 AUDIO
    TITLE "Love Becomes Electric"
    PERFORMER "Strange Advance"
    INDEX 00 37:21:70
    INDEX 01 37:23:70
  TRACK 10 AUDIO
    TITLE "Till the Stars Fall"
    PERFORMER "Strange Advance"
    INDEX 00 41:43:22
    INDEX 01 41:44:22
  TRACK 11 AUDIO
    TITLE "Who Lives Next Door"
    PERFORMER "Strange Advance"
    INDEX 00 45:49:55
    INDEX 01 45:51:25
  TRACK 12 AUDIO
    TITLE "Alien Time"
    PERFORMER "Strange Advance"
    INDEX 00 50:47:15
    INDEX 01 50:48:42
  TRACK 13 AUDIO
    TITLE "Perfect Day (1991 Recording)"
    PERFORMER "Strange Advance"
    INDEX 00 58:12:07
    INDEX 01 58:14:07
  TRACK 14 AUDIO
    TITLE "Do What You Want (New 1995 Recording)"
    PERFORMER "Strange Advance"
    INDEX 00 62:27:22
    INDEX 01 62:29:22
  TRACK 15 AUDIO
    TITLE "Worlds Away (S.E.T.I. 1999)"
    PERFORMER "Strange Advance"
    INDEX 00 67:49:07
    INDEX 01 67:51:07
Darryl Kromm, Drew Arnott, Paul Iverson
СКАЧАЛИ НЕ ЗАБЫВАЕМ ГОВОРИТЬ СПАСИБО!
Правила, инструкции, FAQ!!!
Торрент  Добавлен [02 авг 2019, 21:12] Скачать торрент Магнет ссылка
Скачать торрент
[ Размер 22.41 КБ / Просмотров 23 ]

Статус
Проверен 
 
Размер  2.53 ГБ
Приватный: Нет (DHT включён)
.torrent скачан  0
Как залить торрент? | Как скачать Torrent? | Ошибка в торренте? Качайте магнет  


     Отправить личное сообщение
   
Страница 1 из 1
Показать сообщения за:  Поле сортировки  
Начать новую тему Ответить на тему


Сейчас этот форум просматривают: нет зарегистрированных пользователей и гости: 0


Вы не можете начинать темы
Вы не можете отвечать на сообщения
Вы не можете редактировать свои сообщения
Вы не можете удалять свои сообщения
Вы не можете добавлять вложения

Перейти:  
Ресурс не предоставляет электронные версии произведений, а занимается лишь коллекционированием и каталогизацией ссылок, присылаемых и публикуемых на форуме нашими читателями. Если вы являетесь правообладателем какого-либо представленного материала и не желаете чтобы ссылка на него находилась в нашем каталоге, свяжитесь с нами и мы незамедлительно удалим её. Файлы для обмена на трекере предоставлены пользователями сайта, и администрация не несёт ответственности за их содержание. Просьба не заливать файлы, защищенные авторскими правами, а также файлы нелегального содержания!
cron