Начать новую тему Ответить на тему
Статистика раздачи
Размер: 625.82 МБ | Добавлен: 27 ноя 2014, 17:45 | Скачали: 0
Сидеров: 0  [0 байт/сек]    Личеров: 25  [0 байт/сек]
Пред. тема | След. тема 

Автор
Сообщение

СообщениеДобавлено: 27 ноя 2014, 17:45 

Ответить с цитатой 

Режиссер / Телекомпания: Россия 1
Год выпуска: 2014
Жанр: Документальный

Описание:
Весной 1962 года советская разведка получает копии плана ядерного удара по СССР и перечень городов, которые станут целями для американских ракет. Другой источник сообщает, что на осень 62-го назначен удар по Кубе. Хрущев взбешен. В мае он поручает Генштабу разработать план операции по переброске на остров Свободы ракет с ядерными боеголовками, способных заставить американцев образумиться. Они должны убрать ракеты из Турции и оставить в покое Кастро.

Уже на стадии обсуждения операция была максимально засекречена. Архивы свидетельствуют о том, что протоколы заседаний писались от руки, в одном экземпляре. Причем писали их не секретари, а сами участники. Любопытно, что и договор с Кубой о размещении ракет и оказании военной помощи не был подписан в окончательной редакции, а лишь согласован в устной форме с приезжавшим в Москву Че Геварой. Споры были недолгими. Победила партийная дисциплина. 10 июня за проведение операции по переброске советских войск на Кубу проголосовали единогласно. Операция получила кодовое название "Анадырь". В тот момент на Чукотке, на берегах реки Анадырь, создавался укрепрайон. Войскам, отправляющимся на Кубу, выдавали полушубки и лыжи под видом того, что им предстоит передислокация на Дальний Восток. Возможно, эта дезинформация и сыграла свою роль в том, что буквально на пике Карибского кризиса эксперты ЦРУ все еще клали на стол президенту Кеннеди информацию о том, что русские доставили на Кубу всего десять тысяч солдат и дивизион ракет ПВО. В действительности все обстояло совсем не так…

СССР удалось скрытно перебросить в 1962 году на Кубу крупное соединение войск. Оно насчитывало 40 тысяч солдат и офицеров. Кроме того, на Кубу привезли ракеты средней дальности с ядерными боеголовками, подразделения бомбардировщиков, тактических и крылатых ракет, оснащенных атомными зарядами. По последующим прогнозам американских аналитиков, если бы Москва привела в действие эту мощную военную машину, каждый третий житель США оказался бы в зоне возможного удара русских.

Это была колоссальная, не имеющая аналогов работа, с которой блестяще справились военные, транспортники и контрразведчики. Практически весь советский гражданский флот был мобилизован на кубинское направление. 85 судов совершили за полгода 183 рейса из девяти советских портов от Мурманска до Николаева. Эти самые обычные торговые суда были совершенно не приспособлены для перевозки столь сложных грузов и тем более людей. Ракеты грузились в трюмы лесовозом иногда в нарушение всех норм - наискосок. Людей везли в поистине адских условиях. В верхней части трюма обычного теплохода сооружались нары в два яруса, на которых перевозили личный состав. На судно поднимались ночью. На причалы люди зачастую даже не спускались, переходили из вагона в вагон, а затем из головного вагона - на трап и прямиком в трюм. Там им предстояло провести 17 дней в страшной жаре и тесноте, с нехваткой воды и полноценной пищи, имея возможность подышать чистым воздухом лишь ночью, когда разрешалось выйти на палубу.

Разведывательные самолеты НАТО вели наблюдение за сухогрузами чуть ли не с момента их выхода из порта. Но обобщить информацию и сделать из нее правильные выводы ЦРУ так и не сумело.

Продолжительность: 00:43:42
Качество видео: SATRip

Видеокодек: Xvid
Битрейт видео: ~1800kbps
Размер кадра: 720x400
Аудиокодек: AC3, 2ch
Битрейт аудио: 192.00 kbps
Код:
Код:
Общее
Полное имя : F:\видео\фильмы\Operatciya.Anadyr.SATRip.avi
Формат : AVI
Формат/Информация : Audio Video Interleave
Размер файла : 626 Мбайт
Продолжительность : 43 м.
Общий поток : 2002 Кбит/сек
Программа кодирования : VirtualDubMod 1.5.10.3 | [url=http://www.virtualdub-fr.org]www.virtualdub-fr.org[/url] || (build 2550/release)
Библиотека кодирования : VirtualDubMod build 2550/release

Видео
Идентификатор : 0
Формат : MPEG-4 Visual
Профиль формата : Advanced Simple@L5
Параметр BVOP формата : 2
Параметр QPel формата : Нет
Параметр GMC формата : Без точки перехода
Параметр матрицы формата : Default (H.263)
Идентификатор кодека : XVID
Идентификатор кодека/Подсказка : XviD
Продолжительность : 43 м.
Битрейт : 1800 Кбит/сек
Ширина : 720 пикселей
Высота : 400 пикселей
Соотношение сторон : 16:9
Частота кадров : 25,000 кадров/сек
Цветовое пространство : YUV
Субдискретизация насыщенности : 4:2:0
Битовая глубина : 8 бит
Тип развёртки : Прогрессивная
Метод сжатия : С потерями
Бит/(Пиксели*Кадры) : 0.250
Размер потока : 563 Мбайт (90%)
Библиотека кодирования : XviD 1.2.1 (UTC 2008-12-04)

Аудио
Идентификатор : 1
Формат : AC-3
Формат/Информация : Audio Coding 3
Расширение режима : CM (complete main)
Параметр Endianness формата : Big
Идентификатор кодека : 2000
Продолжительность : 43 м.
Вид битрейта : Постоянный
Битрейт : 192 Кбит/сек
Каналы : 2 канала
Расположение каналов : Front: L R
Частота : 48,0 КГц
Битовая глубина : 16 бит
Метод сжатия : С потерями
Размер потока : 60,0 Мбайт (10%)
Выравнивание : Разделение по промежуткам
Продолжительность промежутка : 40 мс. (1,00 видеокадр)
Время предзагрузки промежутка : 500 мс.

Скриншоты:

Правила, инструкции, FAQ!!!
Торрент  Добавлен [27 ноя 2014, 17:45] Скачать торрент Магнет ссылка
Скачать торрент
[ Размер 12.99 КБ / Просмотров 54 ]

Статус
Проверен 
 
Размер  625.82 МБ
Приватный: Нет (DHT включён)
.torrent скачан  0
Как залить торрент? | Как скачать Torrent? | Ошибка в торренте? Качайте магнет  


     Отправить личное сообщение
   
Страница 1 из 1
Показать сообщения за:  Поле сортировки  
Начать новую тему Ответить на тему


Сейчас этот форум просматривают: нет зарегистрированных пользователей и гости: 0


Вы не можете начинать темы
Вы не можете отвечать на сообщения
Вы не можете редактировать свои сообщения
Вы не можете удалять свои сообщения
Вы не можете добавлять вложения

Перейти:  
Ресурс не предоставляет электронные версии произведений, а занимается лишь коллекционированием и каталогизацией ссылок, присылаемых и публикуемых на форуме нашими читателями. Если вы являетесь правообладателем какого-либо представленного материала и не желаете чтобы ссылка на него находилась в нашем каталоге, свяжитесь с нами и мы незамедлительно удалим её. Файлы для обмена на трекере предоставлены пользователями сайта, и администрация не несёт ответственности за их содержание. Просьба не заливать файлы, защищенные авторскими правами, а также файлы нелегального содержания!
cron