Начать новую тему Ответить на тему
Статистика раздачи
Размер: 1.33 ГБ | Добавлен: 08 ноя 2015, 03:12 | Скачали: 48
Сидеров: 24  [0 байт/сек]    Личеров: 8  [0 байт/сек]
Пред. тема | След. тема 

Автор
Сообщение

СообщениеДобавлено: 08 ноя 2015, 03:12 

Ответить с цитатой 

Год выпуска: 2015
Страна: Россия
Студия: Первый Канал HD
Жанр: Документальный
Продолжительность: 0:43:32

Описание: Всего в торжественном марше примут участие более пяти с половинной тысяч человек. В основном это военнослужащие воинских частей Минобороны и кавалерийской группы президентского полка ФСО. Парадным строем пройдут и курсанты-суворовцы, кадеты, воспитанники Московского военного музыкального училища. Кроме боевых расчетов зрители увидят здесь ещё и бронетехнику. Это и легендарные "полуторки", легкие танки, мотоциклы...

Автор рипа: lrn
Автор записи: GeneralFilm
Сэмпл: sendfile

Качество: HDTVRip 720p
Формат: MKV
Видео: 1280x720 (16:9), 25,000 fps, H264, ~4000 kbps avg, ~0.174 bit/pixel
Аудио: 48 kHz, AC3 Dolby Digital, 3/2 (L,C,R,l,r) + LFE ch, ~384.00 kbps avg

General
Unique ID : 195647688725557008728436320203014768814 (0x93305FCD51AE5539A358CE83036588AE)
Complete name : E:uTorrent.TempDoneMarsh.Posvyashhennyy.74-y.Godovshhine.Parada.7.Nojabrya.1941.Goda.2015.HDTV.720p.x264-lrn.mkv
Format : Matroska
Format version : Version 4 / Version 2
File size : 1.33 GiB
Duration : 43mn 32s
Overall bit rate : 4 386 Kbps
Movie name : Marsh.Posvyashhennyy.74-y.Godovshhine.Parada.7.Nojabrya.1941.Goda.2015.HDTV.720p.x264-lrn
Encoded date : UTC 2010-02-22 21:41:31
Writing application : mkvmerge v5.9.0 ('On The Loose') built on Dec 9 2012 15:37:01
Writing library : libebml v1.3.0 + libmatroska v1.4.0
DURATION : 00:43:32.760000000
NUMBER_OF_FRAMES : 65319
NUMBER_OF_BYTES : 1306359712
_STATISTICS_WRITING_APP : mkvmerge v7.7.0 ('Six Voices') 32bit built on Feb 28 2015 23:23:00
_STATISTICS_WRITING_DATE_UT : 2015-11-07 12:45:48
_STATISTICS_TAGS : BPS DURATION NUMBER_OF_FRAMES NUMBER_OF_BYTES

Video
ID : 1
Format : AVC
Format/Info : Advanced Video Codec
Format profile : High@L4.1
Format settings, CABAC : Yes
Format settings, ReFrames : 8 frames
Codec ID : V_MPEG4/ISO/AVC
Duration : 43mn 32s
Bit rate : 4 000 Kbps
Width : 1 280 pixels
Height : 720 pixels
Display aspect ratio : 16:9
Frame rate mode : Constant
Frame rate : 25.000 fps
Color space : YUV
Chroma subsampling : 4:2:0
Bit depth : 8 bits
Scan type : Progressive
Bits/(Pixel*Frame) : 0.174
Stream size : 1.19 GiB (89%)
Writing library : x264 core 146 r2538 121396c
Encoding settings : cabac=1 / ref=8 / deblock=1:-3:-3 / analyse=0x3:0x133 / me=umh / subme=9 / psy=1 / psy_rd=1.00:0.00 / mixed_ref=1 / me_range=32 / chroma_me=1 / trellis=2 / 8x8dct=1 / cqm=0 / deadzone=21,11 / fast_pskip=1 / chroma_qp_offset=-2 / threads=12 / lookahead_threads=2 / sliced_threads=0 / nr=0 / decimate=1 / interlaced=0 / bluray_compat=0 / constrained_intra=0 / bframes=8 / b_pyramid=2 / b_adapt=2 / b_bias=0 / direct=3 / weightb=1 / open_gop=0 / weightp=2 / keyint=250 / keyint_min=25 / scenecut=40 / intra_refresh=0 / rc_lookahead=50 / rc=2pass / mbtree=1 / bitrate=4000 / ratetol=1.0 / qcomp=0.60 / qpmin=0 / qpmax=69 / qpstep=4 / cplxblur=20.0 / qblur=0.5 / vbv_maxrate=62500 / vbv_bufsize=78125 / nal_hrd=none / filler=0 / ip_ratio=1.40 / aq=1:1.00
Default : Yes
Forced : No

Audio
ID : 2
Format : AC-3
Format/Info : Audio Coding 3
Mode extension : CM (complete main)
Format settings, Endianness : Big
Codec ID : A_AC3
Duration : 43mn 32s
Bit rate mode : Constant
Bit rate : 384 Kbps
Channel(s) : 6 channels
Channel positions : Front: L C R, Side: L R, LFE
Sampling rate : 48.0 KHz
Compression mode : Lossy
Stream size : 120 MiB (9%)
Language : Russian
Default : Yes
Forced : No
raw [info]: 1280x720p 1:1 @ 25/1 fps (cfr)
x264 [info]: using SAR=1/1
x264 [info]: using cpu capabilities: MMX2 SSE2Fast SSSE3 SSE4.2 AVX
x264 [info]: profile High, level 4.1
x264 [info]: frame I:365 Avg QP:20.65 size:132613
x264 [info]: frame P:17963 Avg QP:23.88 size: 43167
x264 [info]: frame B:46991 Avg QP:27.61 size: 10269
x264 [info]: consecutive B-frames: 2.7% 6.1% 9.4% 64.1% 8.2% 7.7% 1.2% 0.5% 0.1%
x264 [info]: mb I I16..4: 7.5% 68.8% 23.7%
x264 [info]: mb P I16..4: 1.0% 5.4% 1.2% P16..4: 45.2% 19.9% 15.8% 1.1% 0.3% skip:10.1%
x264 [info]: mb B I16..4: 0.1% 0.4% 0.1% B16..8: 42.6% 8.4% 2.3% direct: 4.4% skip:41.8% L0:37.8% L1:47.1% BI:15.1%
x264 [info]: 8x8 transform intra:70.9% inter:54.8%
x264 [info]: direct mvs spatial:94.5% temporal:5.5%
x264 [info]: coded y,uvDC,uvAC intra: 78.6% 74.8% 37.4% inter: 21.3% 16.2% 1.3%
x264 [info]: i16 v,h,dc,p: 28% 22% 8% 43%
x264 [info]: i8 v,h,dc,ddl,ddr,vr,hd,vl,hu: 11% 9% 4% 9% 14% 14% 14% 12% 13%
x264 [info]: i4 v,h,dc,ddl,ddr,vr,hd,vl,hu: 13% 12% 3% 8% 12% 13% 13% 10% 14%
x264 [info]: i8c dc,h,v,p: 31% 25% 25% 19%
x264 [info]: Weighted P-Frames: Y:4.4% UV:2.9%
x264 [info]: ref P L0: 53.3% 15.7% 15.2% 4.4% 3.7% 2.8% 2.7% 1.8% 0.3% 0.0%
x264 [info]: ref B L0: 86.1% 8.3% 2.6% 1.2% 0.8% 0.6% 0.3%
x264 [info]: ref B L1: 96.1% 3.9%
x264 [info]: kb/s:3999.94
encoded 65319 frames, 13.73 fps, 3999.94 kb/s
Правила, инструкции, FAQ!!!
Торрент  Добавлен [08 ноя 2015, 03:12] Скачать торрент Магнет ссылка
Скачать торрент
[ Размер 14.36 КБ / Просмотров 56 ]

Статус
Проверен 
 
Размер  1.33 ГБ
Приватный: Нет (DHT включён)
.torrent скачан  48
Как залить торрент? | Как скачать Torrent? | Ошибка в торренте? Качайте магнет  


     Отправить личное сообщение
   
Страница 1 из 1
Показать сообщения за:  Поле сортировки  
Начать новую тему Ответить на тему


Сейчас этот форум просматривают: нет зарегистрированных пользователей и гости: 0


Вы не можете начинать темы
Вы не можете отвечать на сообщения
Вы не можете редактировать свои сообщения
Вы не можете удалять свои сообщения
Вы не можете добавлять вложения

Перейти:  
Ресурс не предоставляет электронные версии произведений, а занимается лишь коллекционированием и каталогизацией ссылок, присылаемых и публикуемых на форуме нашими читателями. Если вы являетесь правообладателем какого-либо представленного материала и не желаете чтобы ссылка на него находилась в нашем каталоге, свяжитесь с нами и мы незамедлительно удалим её. Файлы для обмена на трекере предоставлены пользователями сайта, и администрация не несёт ответственности за их содержание. Просьба не заливать файлы, защищенные авторскими правами, а также файлы нелегального содержания!
cron